<?xml version="1.0" standalone="no"?>
<!DOCTYPE svg PUBLIC "-//W3C//DTD SVG 1.1//EN" "http://www.w3.org/Graphics/SVG/1.1/DTD/svg11.dtd">
<svg xmlns="http://www.w3.org/2000/svg">
<defs >
<font id="Manrope" horiz-adv-x="1131" ><font-face
    font-family="Manrope ExtraLight Light"
    units-per-em="2000"
    panose-1="0 0 0 0 0 0 0 0 0 0"
    ascent="2132"
    descent="-600"
    alphabetic="0" />
<glyph unicode=" " horiz-adv-x="400" />
<glyph unicode="!" horiz-adv-x="595" d="M240 0V147H355V0H240ZM240 360V1440H355V360H240Z" />
<glyph unicode="&quot;" horiz-adv-x="734" d="M120 1080V1440H235V1080H120ZM419 1080V1440H534V1080H419Z" />
<glyph unicode="#" horiz-adv-x="1833" d="M423 0L541 448H120L150 561H573L665 910H244L274 1022H696L807 1440H924L812 1022H1176L1287 1440H1404L1292 1022H1713L1684 910H1262L1168 561H1589L1560 448H1138L1018 0H903L1021 448H658L538 0H423ZM688 561H1052L1145
910H782L688 561Z" />
<glyph unicode="$" horiz-adv-x="1152" d="M521 -197V28H636V-197H521ZM521 1413V1640H636V1413H521ZM601 -30Q460 -30 348 19T162 158T63 372L175 392Q210 249 325 166T603 82Q772 82 874 165T977 383Q977 484 918 544T715 649L404 745Q117 835 117 1081Q117
1197 174 1284T334 1420T572 1470Q709 1469 816 1418T993 1272T1082 1049L969 1028Q955 1126 901 1200T763 1315T573 1357Q475 1358 399 1323T278 1227T234 1085Q234 998 295 939T488 838L769 753Q938 701 1013 615T1089 383Q1089 258 1029 166T859 22T601 -30Z"
/>
<glyph unicode="%" horiz-adv-x="1803" d="M260 0L180 80L1543 1440L1623 1361L260 0ZM1323 -30Q1224 -30 1143 18T1012 148T963 330Q963 428 1013 510T1145 641T1323 690Q1422 690 1504 642T1634 512T1683 330Q1683 230 1635 149T1504 19T1323 -30ZM1323 78Q1392
78 1449 112T1540 204T1575 330Q1575 398 1541 455T1449 547T1323 582Q1255 582 1198 548T1107 456T1072 330Q1072 262 1106 205T1198 113T1323 78ZM480 750Q381 750 299 798T169 928T120 1110Q120 1208 170 1290T302 1421T480 1470Q579 1470 660 1422T791 1292T840
1110Q840 1010 791 929T661 799T480 750ZM480 858Q548 858 605 892T697 984T732 1110Q732 1178 698 1235T606 1327T480 1362Q412 1362 355 1328T263 1236T228 1110Q228 1042 263 985T355 893T480 858Z" />
<glyph unicode="&amp;" horiz-adv-x="1291" d="M599 -30Q478 -30 377 4T207 112Q155 168 129 238T100 387Q99 461 121 534T192 666Q224 706 265 732T349 776Q269 858 227 926T185 1094Q185 1201 237 1290T384 1424Q435 1449 489 1459T596 1469Q673 1469 748 1449T877
1386Q913 1359 941 1322T987 1245L877 1206Q853 1263 800 1301Q759 1331 707 1344T602 1357Q510 1357 433 1320Q370 1288 338 1231T305 1097Q305 1032 325 990T389 896Q412 871 439 847T495 796L981 343Q986 373 988 401T990 457L988 679H1102V472Q1102 384 1096
334T1079 252L1266 78L1189 -5L1024 151Q996 110 950 75T857 18Q799 -10 733 -20T599 -30ZM597 83Q663 83 715 91T815 126Q873 160 899 187T939 235L442 689Q396 675 355 651T283 591Q250 551 235 499T221 391Q222 334 240 284T293 194Q344 137 427 110T597 83Z"
/>
<glyph unicode="&apos;" horiz-adv-x="395" d="M120 1080V1440H235V1080H120Z" />
<glyph unicode="(" horiz-adv-x="834" d="M660 -351Q543 -217 458 -53T326 293T280 660Q279 845 325 1026T457 1372T660 1671L746 1603Q630 1467 551 1313T430 994T388 660Q388 494 430 327T552 5T746 -282L660 -351Z" />
<glyph unicode=")" horiz-adv-x="834" d="M174 -351L88 -282Q202 -150 282 5T404 327T446 660Q446 829 405 994T284 1313T88 1603L174 1671Q291 1537 376 1373T508 1027T554 660Q555 475 509 294T377 -52T174 -351Z" />
<glyph unicode="*" horiz-adv-x="855" d="M243 797L154 862L313 1075L60 1154L94 1259L345 1174L342 1440H452L449 1174L701 1259L735 1154L481 1075L639 862L550 797L397 1013L243 797Z" />
<glyph unicode="+" horiz-adv-x="1157" d="M526 262V668H120V773H526V1178H631V773H1037V668H631V262H526Z" />
<glyph unicode="," horiz-adv-x="505" d="M120 -193L128 -131Q165 -133 180 -115T197 -66T198 0H120V195H265V-50Q265 -129 224 -168T120 -193Z" />
<glyph unicode="-" horiz-adv-x="840" d="M120 578V683H720V578H120Z" />
<glyph unicode="." horiz-adv-x="473" d="M164 0V145H309V0H164Z" />
<glyph unicode="/" horiz-adv-x="744" d="M504 1440H624L240 0H120L504 1440Z" />
<glyph unicode="0" horiz-adv-x="1188" d="M594 -30Q467 -30 365 31T201 194T140 424V1016Q140 1143 201 1245T364 1409T594 1470Q721 1470 824 1409T987 1246T1048 1016V424Q1048 297 988 195T824 31T594 -30ZM594 83Q687 83 763 128T886 251T932 421V1020Q932
1112 886 1189T764 1311T594 1357Q501 1357 425 1312T302 1189T256 1020V421Q256 328 302 251T424 129T594 83Z" />
<glyph unicode="1" horiz-adv-x="748" d="M392 0V1309L120 1146V1278L392 1440H508V0H392Z" />
<glyph unicode="2" horiz-adv-x="1123" d="M100 0L102 110L764 711Q852 790 879 862T906 1018Q906 1112 861 1189T740 1311T568 1357Q471 1357 394 1310T273 1186T228 1018H112Q112 1145 173 1247T337 1410T569 1470Q698 1470 800 1409T963 1244T1023 1017Q1023
931 1004 864T942 738T834 620L209 53L185 113H1023V0H100Z" />
<glyph unicode="3" horiz-adv-x="1087" d="M518 -29Q412 -29 324 7T173 112T80 276L189 311Q229 197 317 139T517 83Q621 86 694 130T807 252T846 436Q846 596 755 691T513 787Q473 787 426 776T340 745L278 837L862 1389L887 1327H138V1440H953V1326L432 828L430
883Q585 911 706 862T897 701T967 436Q967 296 910 192T751 29T518 -29Z" />
<glyph unicode="4" horiz-adv-x="1167" d="M786 0V292H100V405L589 1440H718L229 405H786V840H902V405H1067V292H902V0H786Z" />
<glyph unicode="5" horiz-adv-x="1150" d="M565 -30Q452 -30 357 16T195 143T100 329L210 359Q232 275 286 214T413 119T566 85Q671 85 754 135T885 269T934 452Q934 556 883 639T749 771T566 820Q459 820 379 771T249 642L139 696L183 1440H947V1328H226L294
1391L252 715L218 763Q281 840 374 885T573 930Q705 930 813 866T985 694T1050 452Q1050 321 984 212T808 36T565 -30Z" />
<glyph unicode="6" horiz-adv-x="1241" d="M624 -30Q490 -30 380 35T205 211T140 458V978Q140 1116 205 1227T380 1404T629 1470Q757 1470 864 1410T1036 1247L944 1180Q895 1260 812 1308T629 1357Q522 1357 438 1305T305 1169T256 985V646L222 686Q285 794 392
861T631 929Q763 929 871 865T1043 692T1107 451Q1107 318 1042 209T866 35T624 -30ZM624 83Q726 83 809 132T942 265T991 451Q991 553 942 636T810 769T624 818Q522 818 439 769T306 637T256 451Q256 349 305 266T438 133T624 83Z" />
<glyph unicode="7" horiz-adv-x="983" d="M219 0L759 1326H80V1440H883V1326L343 0H219Z" />
<glyph unicode="8" horiz-adv-x="1139" d="M569 -30Q436 -30 335 22T177 170T120 397Q120 536 188 641T398 799L397 746Q277 781 215 877T153 1089Q153 1208 206 1293T354 1424T569 1470Q690 1470 783 1425T930 1294T984 1089Q984 973 925 878T743 748L736 798Q879
748 949 642T1019 397Q1019 266 962 171T803 23T569 -30ZM569 83Q715 83 805 164T896 397Q896 551 807 631T569 712Q420 712 331 632T241 397Q241 245 332 164T569 83ZM569 825Q699 825 780 891T861 1089Q861 1220 780 1286T569 1353Q438 1353 357 1287T276 1089Q276
958 357 892T569 825Z" />
<glyph unicode="9" horiz-adv-x="1241" d="M617 1470Q751 1470 860 1405T1035 1228T1101 981V462Q1101 323 1036 212T860 36T612 -30Q484 -30 377 30T204 193L297 260Q345 181 429 132T612 82Q719 82 803 134T935 271T984 455V794L1019 754Q956 646 849 579T610
511Q477 511 369 575T197 747T133 989Q133 1122 199 1231T374 1405T617 1470ZM617 1356Q515 1356 432 1307T299 1175T249 989Q249 887 298 804T431 671T617 621Q719 621 802 670T935 803T984 989Q984 1091 935 1174T803 1307T617 1356Z" />
<glyph unicode=":" horiz-adv-x="569" d="M220 170V315H365V170H220ZM220 765V910H365V765H220Z" />
<glyph unicode=";" horiz-adv-x="585" d="M220 -193L228 -131Q265 -133 280 -115T297 -66T298 0H220V195H365V-50Q365 -129 324 -168T220 -193ZM220 935V1080H365V935H220Z" />
<glyph unicode="&lt;" horiz-adv-x="1213" d="M746 164L280 630L746 1096L820 1023L426 630L820 237L746 164Z" />
<glyph unicode="=" horiz-adv-x="1500" d="M240 832V937H1260V832H240ZM240 503V608H1260V503H240Z" />
<glyph unicode="&gt;" horiz-adv-x="1213" d="M468 164L393 237L788 630L393 1023L468 1096L933 630L468 164Z" />
<glyph unicode="?" horiz-adv-x="1028" d="M429 393Q429 474 434 532T473 652Q503 710 550 749T648 823T740 902Q778 946 791 992T805 1091Q805 1147 791 1191T747 1267Q703 1319 640 1338T511 1357Q442 1357 383 1337T285 1276Q250 1242 234 1194T218 1092H100Q102
1165 128 1237T208 1360Q268 1418 349 1444T512 1470Q606 1470 691 1442T834 1348Q883 1296 905 1231T928 1090Q928 1015 901 946T823 825Q788 787 740 753T648 683T580 603Q555 556 554 509T552 393H429ZM429 0V173H552V0H429Z" />
<glyph unicode="@" horiz-adv-x="1801" d="M905 -210Q748 -210 613 -154T376 2T217 239T160 534Q160 695 214 832T367 1072T606 1232T915 1290Q1103 1290 1243 1229T1475 1063T1607 830T1639 564Q1627 377 1546 286T1332 194Q1236 194 1170 238T1082 363L1125
356Q1092 287 1024 256T881 224Q795 224 731 260T630 363T594 515Q594 605 631 670T734 772T883 808Q948 808 1017 781T1123 688L1084 646V780H1176L1175 473Q1175 399 1212 349T1340 299Q1394 299 1435 329T1500 416T1528 551Q1535 701 1493 818T1367 1018T1169
1142T918 1185Q763 1185 643 1132T440 988T315 779T272 534Q273 399 322 283T459 79T662 -56T912 -105Q1005 -105 1098 -80T1264 -9L1305 -99Q1213 -156 1111 -183T905 -210ZM887 331Q968 331 1018 378T1068 517Q1068 610 1018 657T888 704Q798 704 750 656T702
517Q702 425 752 378T887 331Z" />
<glyph unicode="A" horiz-adv-x="1243" d="M40 0L550 1440H693L1203 0H1081L591 1380H649L162 0H40ZM251 362V471H991V362H251Z" />
<glyph unicode="B" horiz-adv-x="1214" d="M140 0V1440H691Q803 1440 892 1393T1033 1263T1085 1078Q1085 962 1021 870T851 740L847 788Q989 745 1072 645T1156 396Q1156 272 1102 184T951 48T733 0H140ZM256 113H695Q791 113 867 146T988 241T1033 391Q1033
478 993 548T883 660T728 702H256V113ZM256 813H690Q765 813 827 848T927 943T964 1082Q964 1193 886 1261T690 1329H256V813Z" />
<glyph unicode="C" horiz-adv-x="1415" d="M715 -30Q500 -30 354 65T134 330T60 720Q60 941 134 1110T354 1374T715 1470Q966 1470 1122 1340T1335 992L1216 963Q1170 1144 1045 1250T715 1357Q538 1357 421 1276T244 1051T183 720Q181 533 240 390T419 165T715
83Q919 83 1044 190T1216 477L1335 448Q1279 230 1123 100T715 -30Z" />
<glyph unicode="D" horiz-adv-x="1323" d="M140 0V1440H569Q594 1440 650 1439T758 1430Q920 1408 1027 1309T1187 1057T1240 720Q1240 535 1187 383T1027 131T758 10Q707 3 650 2T569 0H140ZM261 113H569Q614 113 662 115T744 124Q878 148 960 230T1079 439T1117
720Q1117 875 1079 1001T959 1210T744 1316Q710 1322 661 1324T569 1327H261V113Z" />
<glyph unicode="E" horiz-adv-x="1130" d="M140 0V1440H1030V1328H255V781H910V669H255V112H1030V0H140Z" />
<glyph unicode="F" horiz-adv-x="993" d="M140 0V1440H953V1325H255V778H833V662H255V0H140Z" />
<glyph unicode="G" horiz-adv-x="1392" d="M712 -30Q555 -30 434 24T229 177T103 414T60 720Q60 943 135 1111T356 1374T712 1468Q930 1468 1070 1366T1268 1098L1154 1063Q1104 1196 992 1275T715 1356Q538 1356 421 1276T244 1051T183 720Q181 533 240 390T419
165T715 83Q884 82 991 149T1151 337T1208 622H850V727H1328Q1331 702 1331 678T1332 641Q1332 450 1266 298T1062 58T712 -30Z" />
<glyph unicode="H" horiz-adv-x="1345" d="M140 0V1440H255V776H1089V1440H1205V0H1089V664H255V0H140Z" />
<glyph unicode="I" horiz-adv-x="435" d="M160 0V1440H275V0H160Z" />
<glyph unicode="J" horiz-adv-x="903" d="M372 -28Q235 -28 134 50T0 258L116 285Q137 200 207 142T373 84Q434 84 495 112T592 207Q617 254 621 306T625 433V1440H741V433Q741 376 740 328T730 236T695 147Q645 59 560 16T372 -28Z" />
<glyph unicode="K" horiz-adv-x="1152" d="M140 0V1440H255V756L940 1440H1092L403 748L1152 0H998L255 736V0H140Z" />
<glyph unicode="L" horiz-adv-x="1005" d="M160 0V1440H275V112H975V0H160Z" />
<glyph unicode="M" horiz-adv-x="1672" d="M140 0V1440H247L837 166L1421 1440H1532V2H1419V1175L883 0H789L252 1175V0H140Z" />
<glyph unicode="N" horiz-adv-x="1346" d="M140 0V1440H256L1090 205V1440H1206V0H1090L256 1237V0H140Z" />
<glyph unicode="O" horiz-adv-x="1429" d="M715 -30Q500 -30 354 65T134 330T60 720Q60 941 134 1110T354 1374T715 1470Q930 1470 1075 1375T1295 1110T1369 720Q1369 499 1295 330T1076 66T715 -30ZM715 83Q892 82 1010 163T1187 389T1246 720Q1246 907 1187
1051T1010 1276T715 1357Q538 1358 421 1277T244 1052T183 720Q181 533 240 390T419 165T715 83Z" />
<glyph unicode="P" horiz-adv-x="1185" d="M140 0V1440H683Q704 1440 728 1439T780 1432Q888 1415 965 1355T1084 1203T1125 1001Q1125 890 1084 799T966 647T780 569Q753 565 729 563T683 561H255V0H140ZM255 674H681Q699 674 722 676T770 682Q848 698 900 745T978
860T1004 1001Q1004 1075 978 1141T900 1255T770 1319Q746 1324 723 1326T681 1328H255V674Z" />
<glyph unicode="Q" horiz-adv-x="1429" d="M1273 -28L898 345L981 428L1354 55L1273 -28ZM715 -30Q500 -30 354 65T134 330T60 720Q60 941 134 1110T354 1374T715 1470Q930 1470 1075 1375T1295 1110T1369 720Q1369 499 1295 330T1076 66T715 -30ZM715 83Q892
82 1010 163T1187 389T1246 720Q1246 907 1187 1051T1010 1276T715 1357Q538 1358 421 1277T244 1052T183 720Q181 533 240 390T419 165T715 83Z" />
<glyph unicode="R" horiz-adv-x="1242" d="M140 0V1440H683Q704 1440 728 1439T780 1432Q888 1415 965 1355T1084 1203T1125 1001Q1125 842 1040 724T803 574L770 561H255V0H140ZM1027 0L743 586L850 640L1162 0H1027ZM255 674H681Q699 674 722 676T770 682Q848
698 900 745T978 860T1004 1001Q1004 1075 978 1141T900 1255T770 1319Q746 1324 723 1326T681 1328H255V674Z" />
<glyph unicode="S" horiz-adv-x="1205" d="M629 -30Q481 -30 363 19T167 158T63 372L181 392Q218 248 339 165T632 82Q748 82 837 119T976 223T1026 381Q1026 446 1003 490T942 562T863 608T784 637L422 745Q350 766 294 797T199 870T140 965T119 1083Q119 1199
181 1286T351 1421T601 1470Q743 1469 856 1418T1041 1272T1135 1049L1016 1028Q1002 1127 945 1201T798 1316T600 1357Q495 1358 415 1322T288 1225T242 1087Q242 1007 285 960T392 885T514 841L804 755Q845 743 902 721T1014 659T1105 552T1142 385Q1142 288
1105 211T999 81T836 -1T629 -30Z" />
<glyph unicode="T" horiz-adv-x="1187" d="M536 0V1328H20V1440H1167V1328H651V0H536Z" />
<glyph unicode="U" horiz-adv-x="1392" d="M696 -30Q534 -30 409 37T212 227T140 515V1440H256V539Q256 416 297 329T405 186T548 105T696 79Q767 79 844 105T987 186T1094 328T1136 539V1440H1252V515Q1252 351 1181 229T984 38T696 -30Z" />
<glyph unicode="V" horiz-adv-x="1183" d="M520 0L10 1440H132L590 144L1051 1440H1173L663 0H520Z" />
<glyph unicode="W" horiz-adv-x="1845" d="M450 0L37 1440H156L509 202L861 1440H982L1335 202L1687 1440H1808L1394 0H1276L922 1234L568 0H450Z" />
<glyph unicode="X" horiz-adv-x="1179" d="M20 0L522 730L32 1440H171L589 825L1008 1440H1147L657 730L1159 0H1020L589 633L159 0H20Z" />
<glyph unicode="Y" horiz-adv-x="1075" d="M480 0V608L0 1440H133L538 740L942 1440H1075L596 608V0H480Z" />
<glyph unicode="Z" horiz-adv-x="1195" d="M100 0V31L912 1328H110V1440H1095V1406L287 111H1092V0H100Z" />
<glyph unicode="[" horiz-adv-x="803" d="M280 -440V1770H633V1660H390V-330H633V-440H280Z" />
<glyph unicode="\" horiz-adv-x="744" d="M240 1440L624 0H504L120 1440H240Z" />
<glyph unicode="]" horiz-adv-x="803" d="M523 -440H170V-330H413V1660H170V1770H523V-440Z" />
<glyph unicode="^" horiz-adv-x="1331" d="M211 1006L676 1473L1142 1007L1069 932L676 1327L284 931L211 1006Z" />
<glyph unicode="_" horiz-adv-x="1320" d="M0 -202V-97H1320V-202H0Z" />
<glyph unicode="`" horiz-adv-x="947" d="M457 1615L349 1905H456L564 1615H457Z" />
<glyph unicode="a" horiz-adv-x="1098" d="M452 -30Q327 -30 245 14T121 130T80 288Q80 380 118 442T221 542T364 599Q453 619 556 633T752 659T905 678L863 653Q867 828 798 913T553 999Q430 999 351 944T239 772L121 805Q158 952 270 1031T557 1110Q706 1110
807 1052T949 889Q966 846 972 789T978 673V0H873V284L912 274Q863 128 741 49T452 -30ZM458 76Q568 76 651 115T785 226T851 395Q861 449 862 512T863 605L913 573Q848 565 758 556T573 534T403 501Q356 488 309 464T230 396T198 287Q198 238 222 189T304 108T458
76Z" />
<glyph unicode="b" horiz-adv-x="1168" d="M613 -30Q467 -30 366 46T212 251T159 542Q159 705 212 833T369 1036T624 1110Q771 1110 875 1035T1033 831T1088 542Q1088 380 1033 251T872 46T613 -30ZM140 0V1440H255V832H245V0H140ZM606 80Q725 80 804 141T924
306T965 542Q965 672 926 775T807 939T604 1000Q485 1000 405 942T285 779T245 542Q245 410 284 306T404 141T606 80Z" />
<glyph unicode="c" horiz-adv-x="1093" d="M581 -30Q419 -30 308 42T140 243T80 540Q82 711 140 839T310 1039T582 1110Q739 1110 858 1035T1024 827L912 786Q871 887 783 942T581 998Q453 998 370 940T246 778T203 540Q206 333 300 208T581 82Q696 82 780 135T910
289L1024 250Q961 113 848 42T581 -30Z" />
<glyph unicode="d" horiz-adv-x="1168" d="M555 -30Q402 -30 297 45T136 250T80 542Q80 702 135 831T293 1035T544 1110Q695 1110 799 1036T956 834T1009 542Q1009 380 956 251T802 46T555 -30ZM562 80Q683 80 763 140T883 305T923 542Q923 675 883 779T763 941T564
1000Q441 1000 361 940T242 776T203 542Q203 411 243 307T363 141T562 80ZM923 0V832H913V1440H1028V0H923Z" />
<glyph unicode="e" horiz-adv-x="1158" d="M585 -30Q430 -30 317 39T142 236T80 538Q80 715 141 843T315 1041T583 1110Q740 1110 851 1039T1021 832T1077 507H957V547Q952 769 857 885T585 1001Q402 1001 303 881T203 540Q203 322 302 202T583 82Q708 82 801
140T950 308L1054 262Q989 122 866 46T585 -30ZM159 507V611H1012V507H159Z" />
<glyph unicode="f" horiz-adv-x="694" d="M252 0V1181Q252 1223 256 1261T275 1333T317 1397Q345 1427 379 1443T453 1464T535 1470H674V1370H545Q456 1370 412 1327T367 1185V0H252ZM60 975V1080H674V975H60Z" />
<glyph unicode="g" horiz-adv-x="1168" d="M560 -510Q480 -510 401 -487T252 -411T135 -271L239 -209Q288 -309 378 -352T561 -395Q692 -395 768 -347T878 -202T911 38V321H923V1080H1028V38Q1028 -10 1026 -54T1017 -142Q999 -267 943 -348T792 -470T560 -510ZM555
-30Q402 -30 297 45T136 250T80 542Q80 702 135 831T293 1035T544 1110Q695 1110 799 1036T956 834T1009 542Q1009 380 956 251T802 46T555 -30ZM562 80Q683 80 763 140T883 305T923 542Q923 675 883 779T763 941T564 1000Q441 1000 361 940T242 776T203 542Q203
411 243 307T363 141T562 80Z" />
<glyph unicode="h" horiz-adv-x="1167" d="M931 0V562Q931 664 911 744T849 880T745 965T597 994Q509 994 445 964T339 878T277 748T256 583L165 594Q165 769 224 882T385 1050T612 1105Q701 1105 771 1079T894 1006T980 894T1030 752T1047 591V0H931ZM140 0V1440H245V608H256V0H140Z"
/>
<glyph unicode="i" horiz-adv-x="435" d="M160 1298V1445H275V1298H160ZM160 0V1080H275V0H160Z" />
<glyph unicode="j" horiz-adv-x="475" d="M-20 -480V-366H45Q113 -366 158 -330T203 -202V1080H319V-216Q319 -352 259 -416T66 -480H-20ZM203 1298V1445H319V1298H203Z" />
<glyph unicode="k" horiz-adv-x="964" d="M140 0V1440H256V560L767 1080H928L393 540L1004 0H825L256 520V0H140Z" />
<glyph unicode="l" horiz-adv-x="435" d="M160 0V1470H275V0H160Z" />
<glyph unicode="m" horiz-adv-x="1662" d="M1425 0L1427 726Q1427 857 1353 931T1167 1006Q1104 1006 1043 977T940 883T899 707L818 720Q814 838 861 925T993 1061T1186 1109Q1345 1109 1443 1011T1542 743L1540 0H1425ZM140 0V1080H245V837H255V0H140ZM783 0L785
715Q785 849 712 927T522 1006Q403 1006 329 925T255 707L175 747Q175 852 223 933T354 1062T546 1109Q643 1109 723 1068T851 945T899 738L897 0H783Z" />
<glyph unicode="n" horiz-adv-x="1167" d="M931 0V562Q931 664 911 744T849 880T745 965T597 994Q509 994 445 964T339 878T277 748T256 583L165 594Q165 769 224 882T385 1050T612 1105Q701 1105 771 1079T894 1006T980 894T1030 752T1047 591V0H931ZM140 0V1080H245V837H256V0H140Z"
/>
<glyph unicode="o" horiz-adv-x="1166" d="M583 -30Q422 -30 310 43T139 245T80 542Q80 711 140 839T312 1039T583 1110Q744 1110 856 1038T1027 837T1086 542Q1086 371 1027 243T855 42T583 -30ZM583 82Q774 82 868 210T963 542Q963 750 868 874T583 998Q454
998 370 940T245 779T203 542Q203 334 299 208T583 82Z" />
<glyph unicode="p" horiz-adv-x="1168" d="M613 -30Q467 -30 366 46T212 251T159 542Q159 705 212 833T369 1036T624 1110Q771 1110 875 1035T1033 831T1088 542Q1088 380 1033 251T872 46T613 -30ZM140 -480V1080H245V248H255V-480H140ZM606 80Q725 80 804 141T924
306T965 542Q965 672 926 775T807 939T604 1000Q485 1000 405 942T285 779T245 542Q245 410 284 306T404 141T606 80Z" />
<glyph unicode="q" horiz-adv-x="1168" d="M555 -30Q402 -30 297 45T136 250T80 542Q80 702 135 831T293 1035T544 1110Q695 1110 799 1036T956 834T1009 542Q1009 380 956 251T802 46T555 -30ZM562 80Q683 80 763 140T883 305T923 542Q923 675 883 779T763 941T564
1000Q441 1000 361 940T242 776T203 542Q203 411 243 307T363 141T562 80ZM913 -480V248H923V1080H1028V-480H913Z" />
<glyph unicode="r" horiz-adv-x="696" d="M140 0V1080H245V821L219 855Q237 901 264 940T321 1005Q364 1045 422 1065T539 1089T646 1080V971Q582 986 510 977T375 915Q320 867 295 804T263 671T256 535V0H140Z" />
<glyph unicode="s" horiz-adv-x="1039" d="M539 -28Q352 -28 231 51T80 271L198 291Q223 195 316 138T544 81Q678 81 757 138T836 294Q836 348 812 382T715 446T501 514Q351 554 267 594T148 685T113 810Q113 899 164 966T306 1072T518 1110Q638 1110 734 1071T889
961T957 797L839 775Q822 879 734 939T514 1001Q389 1003 310 952T231 816Q231 768 258 735T356 673T554 613Q710 573 797 531T921 433T957 293Q957 143 846 58T539 -28Z" />
<glyph unicode="t" horiz-adv-x="780" d="M713 0Q627 -19 543 -15T394 23T295 127Q268 184 265 242T262 375V1380H378V377Q378 309 379 265T400 183Q436 114 514 100T713 104V0ZM20 975V1080H713V975H20Z" />
<glyph unicode="u" horiz-adv-x="1167" d="M555 -25Q466 -25 396 1T273 74T187 186T137 328T120 489V1080H236V518Q236 416 256 336T318 200T422 115T570 86Q658 86 722 116T828 202T890 332T911 497L1002 486Q1002 311 943 198T782 30T555 -25ZM922 0V243H911V1080H1027V0H922Z"
/>
<glyph unicode="v" horiz-adv-x="986" d="M432 0L40 1080H159L493 157L826 1080H946L554 0H432Z" />
<glyph unicode="w" horiz-adv-x="1511" d="M370 0L40 1080H158L429 193L700 1080H811L1083 193L1355 1080H1471L1141 0H1033L756 899L478 0H370Z" />
<glyph unicode="x" horiz-adv-x="1036" d="M20 0L451 546L30 1080H170L519 633L866 1080H1006L585 546L1016 0H874L519 459L162 0H20Z" />
<glyph unicode="y" horiz-adv-x="1033" d="M298 -480L508 85L510 -83L37 1080H160L566 70H502L871 1080H992L418 -480H298Z" />
<glyph unicode="z" horiz-adv-x="1057" d="M40 0V31L778 967H90V1080H977V1046L239 113H933V0H40Z" />
<glyph unicode="{" horiz-adv-x="819" d="M617 -440Q521 -440 457 -376T393 -218V451Q393 485 373 517L290 633Q280 648 280 665T290 697L373 813Q393 845 393 879V1546Q393 1641 457 1705T617 1770H731V1657H620Q573 1657 540 1624T506 1543V879Q506 807 464
749L405 665L464 581Q506 524 506 451V-214Q506 -261 539 -294T620 -328H731V-440H617Z" />
<glyph unicode="|" horiz-adv-x="475" d="M180 0V1440H295V0H180Z" />
<glyph unicode="}" horiz-adv-x="819" d="M202 -440H88V-328H199Q247 -328 280 -295T313 -214V451Q313 524 355 581L414 665L355 749Q313 807 313 879V1543Q313 1591 280 1624T199 1657H88V1770H202Q298 1770 362 1706T426 1546V879Q426 845 446 813L529 697Q540
683 540 666T529 633L446 517Q426 485 426 451V-218Q426 -311 362 -375T202 -440Z" />
<glyph unicode="~" horiz-adv-x="1288" d="M848 485Q790 485 736 507T630 558T531 609T441 632Q384 632 369 590T369 504H245Q226 578 245 639T314 736T438 772Q496 772 551 750T658 698T757 647T847 624Q897 624 917 665T919 758H1043Q1062 685 1044 623T975
523T848 485Z" />
<glyph unicode="&#xa0;" horiz-adv-x="400" />
<glyph unicode="&#xa1;" horiz-adv-x="595" d="M240 1080H355V933H240V1080ZM240 720H355V-360H240V720Z" />
<glyph unicode="&#xa2;" horiz-adv-x="1093" d="M532 -60V123Q386 134 286 208T134 407T80 690Q82 853 134 976T287 1173T532 1257V1440H637V1257Q774 1244 877 1171T1024 977L912 936Q871 1037 783 1092T581 1148Q453 1148 370 1090T246 928T203 690Q206 483
300 358T581 232Q696 232 780 285T910 439L1024 400Q965 276 868 206T637 123V-60H532Z" />
<glyph unicode="&#xa3;" horiz-adv-x="1142" d="M63 0V112H190Q248 112 289 153T330 253V1097Q330 1207 378 1291T509 1422T698 1470Q789 1470 860 1430T986 1312T1079 1119L971 1084Q926 1223 860 1290T697 1357Q584 1357 516 1286T447 1095L446 112H1039V0H63ZM63
677V790H830V677H63Z" />
<glyph unicode="&#xa4;" horiz-adv-x="1263" d="M632 196Q524 196 429 237T262 350T149 518T108 722Q108 830 149 925T262 1092T429 1205T632 1246Q741 1246 836 1205T1003 1092T1117 925T1158 722Q1158 613 1117 518T1004 351T836 237T632 196ZM140 150L60 230L262
432L343 352L140 150ZM264 1007L60 1211L140 1290L342 1088L264 1007ZM1123 150L921 352L1001 432L1203 230L1123 150ZM632 304Q747 304 842 361T993 512T1049 720Q1049 835 992 930T839 1081T632 1138Q516 1138 422 1082T272 930T216 720Q216 607 271 513T421
361T632 304ZM1000 1008L921 1088L1123 1290L1203 1211L1000 1008Z" />
<glyph unicode="&#xa5;" horiz-adv-x="1075" d="M168 514V619H908V514H168ZM168 235V340H908V235H168ZM480 0V608L0 1440H133L538 740L942 1440H1075L596 608V0H480Z" />
<glyph unicode="&#xa6;" horiz-adv-x="475" d="M180 727V1440H295V727H180ZM180 -280V433H295V-280H180Z" />
<glyph unicode="&#xa7;" horiz-adv-x="1039" d="M545 -318Q450 -318 360 -288T205 -192T117 -19L235 1Q255 -75 307 -121T424 -188T550 -209Q620 -209 680 -185T778 -114T816 4Q816 70 779 107T667 169T481 224Q367 255 280 288T143 375T93 517Q93 614 149 677T293
768T474 783V751Q362 723 287 667T211 527Q211 465 254 429T370 369T534 323Q652 292 742 258T885 166T937 3Q937 -102 885 -173T743 -281T545 -318ZM613 239L614 277Q671 279 726 305T817 379T853 497Q853 563 815 600T703 662T518 717Q403 748 316 781T179 868T129
1013Q129 1114 186 1180T330 1280T508 1313Q613 1313 701 1274T846 1165T914 1000L796 978Q780 1063 732 1112T620 1183T499 1205Q431 1205 374 1182T283 1118T248 1020Q248 958 291 922T407 862T571 816Q688 786 779 752T922 659T974 498Q974 396 925 329T793
237T613 239Z" />
<glyph unicode="&#xa8;" horiz-adv-x="991" d="M611 1665V1805H751V1665H611ZM240 1665V1805H380V1665H240Z" />
<glyph unicode="&#xa9;" horiz-adv-x="1551" d="M776 -32Q628 -32 498 24T270 178T116 406T60 684Q60 833 115 962T269 1190T498 1344T776 1400Q924 1400 1054 1344T1282 1190T1435 963T1491 684Q1491 536 1436 406T1282 178T1054 24T776 -32ZM782 264Q694 264
622 295T496 393Q444 459 426 536T408 687Q410 764 428 839T496 978Q550 1044 623 1075T787 1107Q841 1107 888 1096T982 1056Q1029 1028 1064 985T1116 887L1014 855Q1000 887 977 916T922 967Q893 988 857 997T783 1007Q723 1007 671 983T583 912Q548 867 535
807T521 689Q521 624 536 564T583 459Q617 413 669 389T782 365Q862 365 925 404Q955 424 976 451T1012 513L1116 481Q1093 424 1059 385T991 323Q946 294 896 279T782 264ZM776 84Q900 84 1008 130T1198 259T1327 451T1374 686Q1374 810 1328 918T1199 1108T1008
1237T776 1284Q651 1284 542 1238T350 1109T221 918T174 686Q174 561 220 452T349 260T541 131T776 84Z" />
<glyph unicode="&#xaa;" horiz-adv-x="626" d="M263 540Q173 540 127 588T80 702Q80 764 114 803T210 861Q265 877 339 887T483 907L450 866Q455 945 427 982T323 1020Q278 1020 242 1000T191 931L100 958Q120 1028 176 1069T324 1110Q398 1110 451 1085T528 1006Q540
980 543 951T546 888V555H461V681L476 662Q443 600 391 570T263 540ZM279 620Q348 620 389 655T440 736Q448 761 449 793T450 840L485 826Q414 815 356 808T256 787Q222 777 199 758T176 703Q176 670 200 645T279 620Z" />
<glyph unicode="&#xab;" horiz-adv-x="1038" d="M826 109L482 542L826 973L901 914L603 542L901 168L826 109ZM504 109L160 542L504 973L579 914L282 542L579 168L504 109Z" />
<glyph unicode="&#xac;" horiz-adv-x="1200" d="M975 396V648H120V753H1080V396H975Z" />
<glyph unicode="&#xad;" horiz-adv-x="840" d="M120 578V683H720V578H120Z" />
<glyph unicode="&#xae;" horiz-adv-x="1230" d="M616 584Q517 584 431 621T279 723T177 875T140 1060Q140 1158 177 1244T279 1395T430 1497T616 1534Q714 1534 800 1498T951 1396T1053 1244T1090 1060Q1090 961 1053 875T951 724T800 621T616 584ZM616 684Q719
684 804 735T940 871T991 1060Q991 1164 941 1249T805 1384T616 1435Q512 1435 427 1385T290 1249T239 1060Q239 956 290 871T426 735T616 684ZM453 832V1295H656Q718 1295 763 1251T809 1145Q809 1106 786 1068T722 1010L810 832H724L645 996H528V832H453ZM528
1067H655Q685 1067 708 1090T732 1145Q732 1181 708 1202T655 1224H528V1067Z" />
<glyph unicode="&#xaf;" horiz-adv-x="971" d="M240 1680V1785H731V1680H240Z" />
<glyph unicode="&#xb0;" horiz-adv-x="900" d="M420 750Q321 750 239 798T109 928T60 1110Q60 1208 110 1290T242 1421T420 1470Q519 1470 600 1422T731 1292T780 1110Q780 1010 731 929T601 799T420 750ZM420 858Q488 858 545 892T637 984T672 1110Q672 1178
638 1235T546 1327T420 1362Q352 1362 295 1328T203 1236T168 1110Q168 1042 203 985T295 893T420 858Z" />
<glyph unicode="&#xb1;" horiz-adv-x="1200" d="M548 440V708H120V813H548V1080H653V813H1080V708H653V440H548ZM120 167V272H1080V167H120Z" />
<glyph unicode="&#xb2;" horiz-adv-x="792" d="M100 540L102 628L506 996Q558 1042 575 1084T593 1171Q593 1254 538 1311T400 1368Q344 1368 299 1341T229 1269T204 1173H105Q105 1256 144 1321T249 1423T401 1460Q484 1460 549 1422T653 1318T692 1171Q692 1114
678 1072T634 993T561 916L187 577L165 633H692V540H100Z" />
<glyph unicode="&#xb3;" horiz-adv-x="770" d="M360 520Q261 520 185 573T80 720L173 747Q195 681 246 647T360 613Q449 615 500 670T551 813Q551 903 499 958T359 1014Q335 1014 309 1008T259 990L211 1066L579 1406L601 1348H116V1440H640V1346L318 1040L314
1093Q414 1110 489 1078T607 976T650 813Q650 727 613 661T510 558T360 520Z" />
<glyph unicode="&#xb4;" horiz-adv-x="947" d="M490 1615H383L491 1905H598L490 1615Z" />
<glyph unicode="&#xb5;" horiz-adv-x="1187" d="M140 -480V1080H256V518Q256 416 276 336T338 200T442 115T589 86Q678 86 742 116T848 202T910 332T931 497V1080H1047V0H942V164Q882 67 786 21T575 -25Q465 -25 382 17T245 140V-480H140Z" />
<glyph unicode="&#xb6;" horiz-adv-x="1216" d="M693 -282V561H605Q587 561 563 563T509 569Q401 586 324 646T205 798T163 1001Q163 1110 204 1202T323 1354T509 1432Q538 1437 562 1438T605 1440H808V-282H693ZM937 -282V1440H1052V-282H937Z" />
<glyph unicode="&#xb7;" horiz-adv-x="427" d="M216 537Q176 537 148 563T120 630Q120 671 148 697T216 723Q253 723 280 697T307 630Q307 590 280 564T216 537Z" />
<glyph unicode="&#xb8;" horiz-adv-x="783" d="M364 -479Q329 -479 299 -471T240 -449L273 -362Q321 -380 355 -380Q397 -380 419 -354T442 -294Q442 -246 401 -225T309 -188L384 17L480 18L426 -130Q478 -153 512 -193T546 -299Q546 -375 492 -427T364 -479Z" />
<glyph unicode="&#xb9;" horiz-adv-x="627" d="M290 540V1332L120 1230V1338L290 1440H387V540H290Z" />
<glyph unicode="&#xba;" horiz-adv-x="685" d="M342 540Q221 540 151 620T80 826Q80 953 152 1031T342 1110Q464 1110 534 1031T605 826Q605 699 534 620T342 540ZM342 632Q423 632 462 686T502 826Q502 914 462 966T342 1019Q260 1019 222 966T183 826Q183 738
223 685T342 632Z" />
<glyph unicode="&#xbb;" horiz-adv-x="1038" d="M212 109L137 168L434 542L137 914L212 973L556 542L212 109ZM534 109L458 168L756 542L458 914L534 973L878 542L534 109Z" />
<glyph unicode="&#xbc;" horiz-adv-x="1905" d="M290 540V1332L120 1230V1338L290 1440H387V540H290ZM1472 0V172H1051V265L1352 900H1461L1161 265H1472V526H1569V265H1665V172H1569V0H1472ZM334 0L246 69L1319 1442L1404 1375L334 0Z" />
<glyph unicode="&#xbd;" horiz-adv-x="1815" d="M290 540V1332L120 1230V1338L290 1440H387V540H290ZM1123 0L1125 88L1530 456Q1582 502 1599 544T1616 631Q1616 714 1561 771T1423 828Q1367 828 1323 801T1252 729T1228 633H1128Q1128 716 1167 781T1272 883T1424
920Q1507 920 1572 882T1676 778T1715 631Q1715 574 1701 532T1657 453T1584 376L1210 37L1188 93H1715V0H1123ZM334 0L246 69L1319 1442L1404 1375L334 0Z" />
<glyph unicode="&#xbe;" horiz-adv-x="1926" d="M360 520Q261 520 185 573T80 720L173 747Q195 681 246 647T360 613Q449 615 500 670T551 813Q551 903 499 958T359 1014Q335 1014 309 1008T259 990L211 1066L579 1406L601 1348H116V1440H640V1346L318 1040L314
1093Q414 1110 489 1078T607 976T650 813Q650 727 613 661T510 558T360 520ZM1613 0V172H1192V265L1493 900H1602L1302 265H1613V526H1710V265H1806V172H1710V0H1613ZM476 0L389 69L1461 1442L1547 1375L476 0Z" />
<glyph unicode="&#xbf;" horiz-adv-x="1028" d="M599 687Q599 606 594 548T555 428Q524 370 477 331T379 257T288 178Q250 135 237 88T223 -11Q223 -66 237 -110T281 -187Q325 -238 388 -257T517 -277Q587 -277 646 -257T742 -196Q779 -161 794 -113T810 -12H928Q926
-85 900 -157T820 -280Q760 -337 680 -363T516 -390Q422 -390 337 -361T194 -268Q146 -215 123 -150T100 -10Q100 66 127 135T205 255Q240 293 288 327T380 397T447 477Q474 525 475 572T476 687H599ZM598 1080V907H476V1080H598Z" />
<glyph unicode="&#xc0;" horiz-adv-x="1243" d="M557 1615L450 1905H557L664 1615H557ZM1203 0H1081L593 1380H652L162 0H40L550 1440H693L1203 0ZM992 362H252V471H992V362Z" />
<glyph unicode="&#xc1;" horiz-adv-x="1243" d="M685 1615H578L686 1905H793L685 1615ZM40 0L550 1440H693L1203 0H1081L591 1380H649L162 0H40ZM251 362V471H991V362H251Z" />
<glyph unicode="&#xc2;" horiz-adv-x="1243" d="M350 1615L565 1870H679L893 1615H768L622 1787L475 1615H350ZM40 0L550 1440H693L1203 0H1081L591 1380H649L162 0H40ZM251 362V471H991V362H251Z" />
<glyph unicode="&#xc3;" horiz-adv-x="1243" d="M766 1666Q725 1666 687 1682T612 1718T542 1755T478 1771Q437 1771 427 1741T426 1679H338Q318 1759 357 1814T475 1870Q517 1870 556 1854T632 1818T702 1781T765 1765Q802 1765 815 1794T817 1860H905Q925 1782
886 1724T766 1666ZM40 0L550 1440H693L1203 0H1081L591 1380H649L162 0H40ZM251 362V471H991V362H251Z" />
<glyph unicode="&#xc4;" horiz-adv-x="1243" d="M738 1665V1805H878V1665H738ZM367 1665V1805H507V1665H367ZM40 0L550 1440H693L1203 0H1081L591 1380H649L162 0H40ZM251 362V471H991V362H251Z" />
<glyph unicode="&#xc5;" horiz-adv-x="1243" d="M622 1558Q566 1558 519 1586T444 1661T416 1765Q416 1822 444 1868T519 1943T622 1972Q680 1972 727 1944T801 1869T829 1765Q829 1708 802 1661T727 1586T622 1558ZM622 1655Q669 1655 700 1687T732 1765Q732
1811 701 1843T622 1875Q577 1875 545 1843T512 1765Q512 1720 544 1688T622 1655ZM40 0L550 1440H693L1203 0H1081L591 1380H649L162 0H40ZM251 362V471H991V362H251Z" />
<glyph unicode="&#xc6;" horiz-adv-x="1823" d="M40 0L550 1440H882V1328H575L648 1377L162 0H40ZM251 362V471H907V362H251ZM833 0V1440H1723V1328H949V781H1603V669H949V112H1723V0H833Z" />
<glyph unicode="&#xc7;" horiz-adv-x="1415" d="M702 -479Q668 -479 637 -471T579 -449L612 -362Q660 -380 693 -380Q735 -380 758 -354T781 -294Q781 -246 740 -225T648 -188L723 17L819 18L765 -130Q817 -153 851 -193T885 -299Q885 -375 831 -427T702 -479ZM715
-30Q500 -30 354 65T134 330T60 720Q60 941 134 1110T354 1374T715 1470Q966 1470 1122 1340T1335 992L1216 963Q1170 1144 1045 1250T715 1357Q538 1357 421 1276T244 1051T183 720Q181 533 240 390T419 165T715 83Q919 83 1044 190T1216 477L1335 448Q1279 230
1123 100T715 -30Z" />
<glyph unicode="&#xc8;" horiz-adv-x="1130" d="M566 1615L458 1905H565L673 1615H566ZM140 0V1440H1030V1328H255V781H910V669H255V112H1030V0H140Z" />
<glyph unicode="&#xc9;" horiz-adv-x="1130" d="M662 1615H554L662 1905H769L662 1615ZM140 0V1440H1030V1328H255V781H910V669H255V112H1030V0H140Z" />
<glyph unicode="&#xca;" horiz-adv-x="1130" d="M303 1615L517 1870H631L846 1615H721L574 1787L428 1615H303ZM140 0V1440H1030V1328H255V781H910V669H255V112H1030V0H140Z" />
<glyph unicode="&#xcb;" horiz-adv-x="1130" d="M675 1665V1805H815V1665H675ZM304 1665V1805H444V1665H304ZM140 0V1440H1030V1328H255V781H910V669H255V112H1030V0H140Z" />
<glyph unicode="&#xcc;" horiz-adv-x="435" d="M162 1615L54 1905H161L269 1615H162ZM160 0V1440H275V0H160Z" />
<glyph unicode="&#xcd;" horiz-adv-x="435" d="M274 1615H167L274 1905H381L274 1615ZM160 0V1440H275V0H160Z" />
<glyph unicode="&#xce;" horiz-adv-x="435" d="M-55 1615L160 1870H274L489 1615H364L217 1787L70 1615H-55ZM160 0V1440H275V0H160Z" />
<glyph unicode="&#xcf;" horiz-adv-x="435" d="M333 1665V1805H473V1665H333ZM-38 1665V1805H102V1665H-38ZM160 0V1440H275V0H160Z" />
<glyph unicode="&#xd0;" horiz-adv-x="1306" d="M20 668V773H635V668H20ZM123 0V1440H552Q577 1440 633 1439T741 1430Q903 1408 1010 1309T1170 1057T1223 720Q1223 535 1170 383T1010 131T741 10Q690 3 633 2T552 0H123ZM244 113H552Q597 113 645 115T727 124Q861
148 943 230T1062 439T1100 720Q1100 875 1062 1001T942 1210T727 1316Q693 1322 644 1324T552 1327H244V113Z" />
<glyph unicode="&#xd1;" horiz-adv-x="1346" d="M845 1616Q805 1616 766 1632T691 1668T621 1705T557 1721Q517 1721 506 1691T506 1629H418Q397 1709 436 1764T555 1820Q596 1820 635 1804T711 1768T781 1731T844 1715Q881 1715 894 1744T896 1810H984Q1004 1732
965 1674T845 1616ZM140 0V1440H256L1090 205V1440H1206V0H1090L256 1237V0H140Z" />
<glyph unicode="&#xd2;" horiz-adv-x="1429" d="M663 1615L555 1905H663L770 1615H663ZM715 -30Q500 -30 354 65T134 330T60 720Q60 941 134 1110T354 1374T715 1470Q930 1470 1075 1375T1295 1110T1369 720Q1369 499 1295 330T1076 66T715 -30ZM715 83Q892 82
1010 163T1187 389T1246 720Q1246 907 1187 1051T1010 1276T715 1357Q538 1358 421 1277T244 1052T183 720Q181 533 240 390T419 165T715 83Z" />
<glyph unicode="&#xd3;" horiz-adv-x="1429" d="M788 1615H681L789 1905H896L788 1615ZM715 -30Q500 -30 354 65T134 330T60 720Q60 941 134 1110T354 1374T715 1470Q930 1470 1075 1375T1295 1110T1369 720Q1369 499 1295 330T1076 66T715 -30ZM715 83Q892 82
1010 163T1187 389T1246 720Q1246 907 1187 1051T1010 1276T715 1357Q538 1358 421 1277T244 1052T183 720Q181 533 240 390T419 165T715 83Z" />
<glyph unicode="&#xd4;" horiz-adv-x="1429" d="M442 1615L657 1870H771L986 1615H861L714 1787L567 1615H442ZM715 -30Q500 -30 354 65T134 330T60 720Q60 941 134 1110T354 1374T715 1470Q930 1470 1075 1375T1295 1110T1369 720Q1369 499 1295 330T1076 66T715
-30ZM715 83Q892 82 1010 163T1187 389T1246 720Q1246 907 1187 1051T1010 1276T715 1357Q538 1358 421 1277T244 1052T183 720Q181 533 240 390T419 165T715 83Z" />
<glyph unicode="&#xd5;" horiz-adv-x="1429" d="M715 -30Q500 -30 354 65T134 330T60 720Q60 941 134 1110T354 1374T715 1470Q930 1470 1075 1375T1295 1110T1369 720Q1369 499 1295 330T1076 66T715 -30ZM715 83Q892 82 1010 163T1187 389T1246 720Q1246 907
1187 1051T1010 1276T715 1357Q538 1358 421 1277T244 1052T183 720Q181 533 240 390T419 165T715 83ZM874 1616Q833 1616 795 1632T720 1668T650 1705T586 1721Q545 1721 535 1691T534 1629H446Q426 1709 465 1764T583 1820Q625 1820 664 1804T740 1768T810 1731T873
1715Q910 1715 923 1744T925 1810H1013Q1033 1732 994 1674T874 1616Z" />
<glyph unicode="&#xd6;" horiz-adv-x="1429" d="M830 1665V1805H970V1665H830ZM459 1665V1805H599V1665H459ZM715 -30Q500 -30 354 65T134 330T60 720Q60 941 134 1110T354 1374T715 1470Q930 1470 1075 1375T1295 1110T1369 720Q1369 499 1295 330T1076 66T715
-30ZM715 83Q892 82 1010 163T1187 389T1246 720Q1246 907 1187 1051T1010 1276T715 1357Q538 1358 421 1277T244 1052T183 720Q181 533 240 390T419 165T715 83Z" />
<glyph unicode="&#xd7;" horiz-adv-x="963" d="M769 358L481 645L194 358L120 433L407 720L120 1007L194 1081L481 794L768 1081L843 1007L555 720L843 433L769 358Z" />
<glyph unicode="&#xd8;" horiz-adv-x="1429" d="M108 -26L24 51L217 259L241 284L1129 1240L1148 1261L1331 1460L1415 1386L1217 1169L1199 1152L312 195L288 168L108 -26ZM715 -30Q500 -30 354 65T134 330T60 720Q60 941 134 1110T354 1374T715 1470Q930 1470
1075 1375T1295 1110T1369 720Q1369 499 1295 330T1076 66T715 -30ZM715 83Q892 82 1010 163T1187 389T1246 720Q1246 907 1187 1051T1010 1276T715 1357Q538 1358 421 1277T244 1052T183 720Q181 533 240 390T419 165T715 83Z" />
<glyph unicode="&#xd9;" horiz-adv-x="1392" d="M664 1615L557 1905H664L772 1615H664ZM696 -30Q534 -30 409 37T212 227T140 515V1440H256V539Q256 416 297 329T405 186T548 105T696 79Q767 79 844 105T987 186T1094 328T1136 539V1440H1252V515Q1252 351 1181
229T984 38T696 -30Z" />
<glyph unicode="&#xda;" horiz-adv-x="1392" d="M730 1615H623L731 1905H838L730 1615ZM696 -30Q534 -30 409 37T212 227T140 515V1440H256V539Q256 416 297 329T405 186T548 105T696 79Q767 79 844 105T987 186T1094 328T1136 539V1440H1252V515Q1252 351 1181
229T984 38T696 -30Z" />
<glyph unicode="&#xdb;" horiz-adv-x="1392" d="M424 1615L638 1870H752L967 1615H842L695 1787L549 1615H424ZM696 -30Q534 -30 409 37T212 227T140 515V1440H256V539Q256 416 297 329T405 186T548 105T696 79Q767 79 844 105T987 186T1094 328T1136 539V1440H1252V515Q1252
351 1181 229T984 38T696 -30Z" />
<glyph unicode="&#xdc;" horiz-adv-x="1392" d="M811 1665V1805H951V1665H811ZM441 1665V1805H581V1665H441ZM696 -30Q534 -30 409 37T212 227T140 515V1440H256V539Q256 416 297 329T405 186T548 105T696 79Q767 79 844 105T987 186T1094 328T1136 539V1440H1252V515Q1252
351 1181 229T984 38T696 -30Z" />
<glyph unicode="&#xdd;" horiz-adv-x="1075" d="M568 1615H461L568 1905H675L568 1615ZM480 0V608L0 1440H133L538 740L942 1440H1075L596 608V0H480Z" />
<glyph unicode="&#xde;" horiz-adv-x="1166" d="M140 0V1440H256V1159H665Q744 1159 818 1131Q863 1115 903 1089T976 1027Q1038 967 1072 886T1106 720Q1106 640 1076 566T995 431Q936 362 848 322T665 281H256V0H140ZM256 393H665Q734 393 799 425T909 511Q945
555 966 609T985 720Q984 786 959 846T888 952Q846 995 786 1021T665 1047H256V393Z" />
<glyph unicode="&#xdf;" horiz-adv-x="1174" d="M603 -28Q555 -28 509 -23T421 0V114Q465 99 506 94T597 88Q747 88 840 171T933 407Q933 548 823 629T533 714V823Q604 832 666 862T766 949T804 1092Q804 1217 731 1287T534 1358Q449 1358 380 1320T283 1199Q271
1162 267 1120T262 1033V0H140V1063Q140 1116 146 1162T167 1245Q196 1319 247 1369T370 1445T533 1470Q649 1470 737 1426T875 1297T925 1091Q925 983 876 900T734 786Q780 781 835 755T940 681T1022 565T1054 406Q1054 210 939 91T603 -28Z" />
<glyph unicode="&#xe0;" horiz-adv-x="1098" d="M512 1255L405 1545H512L619 1255H512ZM452 -30Q327 -30 245 14T121 130T80 288Q80 380 118 442T221 542T364 599Q453 619 556 633T752 659T905 678L863 653Q867 828 798 913T553 999Q430 999 351 944T239 772L121
805Q158 952 270 1031T557 1110Q706 1110 807 1052T949 889Q966 846 972 789T978 673V0H873V284L912 274Q863 128 741 49T452 -30ZM458 76Q568 76 651 115T785 226T851 395Q861 449 862 512T863 605L913 573Q848 565 758 556T573 534T403 501Q356 488 309 464T230
396T198 287Q198 238 222 189T304 108T458 76Z" />
<glyph unicode="&#xe1;" horiz-adv-x="1098" d="M612 1255H505L612 1545H719L612 1255ZM452 -30Q327 -30 245 14T121 130T80 288Q80 380 118 442T221 542T364 599Q453 619 556 633T752 659T905 678L863 653Q867 828 798 913T553 999Q430 999 351 944T239 772L121
805Q158 952 270 1031T557 1110Q706 1110 807 1052T949 889Q966 846 972 789T978 673V0H873V284L912 274Q863 128 741 49T452 -30ZM458 76Q568 76 651 115T785 226T851 395Q861 449 862 512T863 605L913 573Q848 565 758 556T573 534T403 501Q356 488 309 464T230
396T198 287Q198 238 222 189T304 108T458 76Z" />
<glyph unicode="&#xe2;" horiz-adv-x="1098" d="M293 1255L507 1510H621L836 1255H711L564 1427L418 1255H293ZM452 -30Q327 -30 245 14T121 130T80 288Q80 380 118 442T221 542T364 599Q453 619 556 633T752 659T905 678L863 653Q867 828 798 913T553 999Q430
999 351 944T239 772L121 805Q158 952 270 1031T557 1110Q706 1110 807 1052T949 889Q966 846 972 789T978 673V0H873V284L912 274Q863 128 741 49T452 -30ZM458 76Q568 76 651 115T785 226T851 395Q861 449 862 512T863 605L913 573Q848 565 758 556T573 534T403
501Q356 488 309 464T230 396T198 287Q198 238 222 189T304 108T458 76Z" />
<glyph unicode="&#xe3;" horiz-adv-x="1098" d="M717 1256Q676 1256 638 1272T562 1308T492 1345T429 1361Q388 1361 378 1331T377 1269H289Q269 1349 308 1404T426 1460Q468 1460 507 1444T582 1408T652 1371T716 1355Q752 1355 766 1384T767 1450H855Q876 1372
837 1314T717 1256ZM452 -30Q327 -30 245 14T121 130T80 288Q80 380 118 442T221 542T364 599Q453 619 556 633T752 659T905 678L863 653Q867 828 798 913T553 999Q430 999 351 944T239 772L121 805Q158 952 270 1031T557 1110Q706 1110 807 1052T949 889Q966 846
972 789T978 673V0H873V284L912 274Q863 128 741 49T452 -30ZM458 76Q568 76 651 115T785 226T851 395Q861 449 862 512T863 605L913 573Q848 565 758 556T573 534T403 501Q356 488 309 464T230 396T198 287Q198 238 222 189T304 108T458 76Z" />
<glyph unicode="&#xe4;" horiz-adv-x="1098" d="M689 1305V1445H829V1305H689ZM318 1305V1445H458V1305H318ZM452 -30Q327 -30 245 14T121 130T80 288Q80 380 118 442T221 542T364 599Q453 619 556 633T752 659T905 678L863 653Q867 828 798 913T553 999Q430 999
351 944T239 772L121 805Q158 952 270 1031T557 1110Q706 1110 807 1052T949 889Q966 846 972 789T978 673V0H873V284L912 274Q863 128 741 49T452 -30ZM458 76Q568 76 651 115T785 226T851 395Q861 449 862 512T863 605L913 573Q848 565 758 556T573 534T403 501Q356
488 309 464T230 396T198 287Q198 238 222 189T304 108T458 76Z" />
<glyph unicode="&#xe5;" horiz-adv-x="1098" d="M564 1198Q507 1198 460 1226T385 1301T357 1405Q357 1462 385 1508T460 1583T564 1612Q621 1612 668 1584T742 1509T770 1405Q770 1348 743 1301T668 1226T564 1198ZM564 1295Q610 1295 642 1327T674 1405Q674
1451 642 1483T564 1515Q519 1515 487 1483T454 1405Q454 1360 486 1328T564 1295ZM452 -30Q327 -30 245 14T121 130T80 288Q80 380 118 442T221 542T364 599Q453 619 556 633T752 659T905 678L863 653Q867 828 798 913T553 999Q430 999 351 944T239 772L121 805Q158
952 270 1031T557 1110Q706 1110 807 1052T949 889Q966 846 972 789T978 673V0H873V284L912 274Q863 128 741 49T452 -30ZM458 76Q568 76 651 115T785 226T851 395Q861 449 862 512T863 605L913 573Q848 565 758 556T573 534T403 501Q356 488 309 464T230 396T198
287Q198 238 222 189T304 108T458 76Z" />
<glyph unicode="&#xe6;" horiz-adv-x="1888" d="M1343 -30Q1190 -30 1083 43T921 244T865 539Q865 709 921 837T1084 1038T1344 1110Q1500 1110 1604 1034T1759 823T1807 507H1693V547Q1688 757 1604 879T1341 1001Q1219 1001 1139 943T1020 780T980 540Q980 333
1071 208T1341 82Q1454 82 1544 138T1686 308L1784 262Q1744 167 1678 102T1527 4T1343 -30ZM458 75Q582 75 678 131T817 275Q842 328 851 388T862 495T863 555L883 516L553 512Q507 511 447 506T330 481T236 416T198 292Q198 187 268 131T458 75ZM461 -30Q282
-30 181 56T80 292Q80 383 114 441T204 533T323 582T444 602T544 608L875 614L862 595Q869 727 840 817T742 953T558 999Q444 999 356 950T235 783L121 819Q145 915 208 979T361 1077T558 1110Q724 1110 824 1038T959 835Q971 793 974 752T978 671L933 285Q892
164 817 95T648 -2T461 -30ZM939 507V612H1745V507H939Z" />
<glyph unicode="&#xe7;" horiz-adv-x="1093" d="M528 -479Q493 -479 463 -471T404 -449L437 -362Q485 -380 519 -380Q561 -380 583 -354T606 -294Q606 -246 565 -225T473 -188L548 17L644 18L590 -130Q642 -153 676 -193T710 -299Q710 -375 656 -427T528 -479ZM581
-30Q419 -30 308 42T140 243T80 540Q82 711 140 839T310 1039T582 1110Q739 1110 858 1035T1024 827L912 786Q871 887 783 942T581 998Q453 998 370 940T246 778T203 540Q206 333 300 208T581 82Q696 82 780 135T910 289L1024 250Q961 113 848 42T581 -30Z" />
<glyph unicode="&#xe8;" horiz-adv-x="1158" d="M547 1255L439 1545H547L654 1255H547ZM585 -30Q430 -30 317 39T142 236T80 538Q80 715 141 843T315 1041T583 1110Q740 1110 851 1039T1021 832T1077 507H957V547Q952 769 857 885T585 1001Q402 1001 303 881T203
540Q203 322 302 202T583 82Q708 82 801 140T950 308L1054 262Q989 122 866 46T585 -30ZM159 507V611H1012V507H159Z" />
<glyph unicode="&#xe9;" horiz-adv-x="1158" d="M657 1255H550L658 1545H765L657 1255ZM585 -30Q430 -30 317 39T142 236T80 538Q80 715 141 843T315 1041T583 1110Q740 1110 851 1039T1021 832T1077 507H957V547Q952 769 857 885T585 1001Q402 1001 303 881T203
540Q203 322 302 202T583 82Q708 82 801 140T950 308L1054 262Q989 122 866 46T585 -30ZM159 507V611H1012V507H159Z" />
<glyph unicode="&#xea;" horiz-adv-x="1158" d="M310 1255L525 1510H639L854 1255H729L582 1427L435 1255H310ZM585 -30Q430 -30 317 39T142 236T80 538Q80 715 141 843T315 1041T583 1110Q740 1110 851 1039T1021 832T1077 507H957V547Q952 769 857 885T585 1001Q402
1001 303 881T203 540Q203 322 302 202T583 82Q708 82 801 140T950 308L1054 262Q989 122 866 46T585 -30ZM159 507V611H1012V507H159Z" />
<glyph unicode="&#xeb;" horiz-adv-x="1158" d="M698 1305V1445H838V1305H698ZM327 1305V1445H467V1305H327ZM585 -30Q430 -30 317 39T142 236T80 538Q80 715 141 843T315 1041T583 1110Q740 1110 851 1039T1021 832T1077 507H957V547Q952 769 857 885T585 1001Q402
1001 303 881T203 540Q203 322 302 202T583 82Q708 82 801 140T950 308L1054 262Q989 122 866 46T585 -30ZM159 507V611H1012V507H159Z" />
<glyph unicode="&#xec;" horiz-adv-x="435" d="M162 1255L54 1545H161L269 1255H162ZM160 0V1080H275V0H160Z" />
<glyph unicode="&#xed;" horiz-adv-x="435" d="M274 1255H167L274 1545H381L274 1255ZM160 0V1080H275V0H160Z" />
<glyph unicode="&#xee;" horiz-adv-x="435" d="M-51 1255L163 1510H277L492 1255H367L220 1427L74 1255H-51ZM160 0V1080H275V0H160Z" />
<glyph unicode="&#xef;" horiz-adv-x="435" d="M333 1305V1445H473V1305H333ZM-38 1305V1445H102V1305H-38ZM160 0V1080H275V0H160Z" />
<glyph unicode="&#xf0;" horiz-adv-x="1155" d="M579 -30Q423 -32 312 34T142 222T80 504Q82 667 142 787T313 973T579 1038Q687 1039 787 997T953 869Q935 1017 871 1126T701 1298T450 1372L466 1475Q638 1466 765 1388T967 1171Q1011 1094 1035 1006T1067 799T1075
507Q1075 343 1015 222T844 34T579 -30ZM579 80Q763 80 859 195T955 506Q955 703 856 816T579 928Q395 930 298 815T200 504Q200 305 298 193T579 80ZM612 1141L532 1207L819 1564L898 1499L612 1141Z" />
<glyph unicode="&#xf1;" horiz-adv-x="1167" d="M728 1256Q688 1256 649 1272T574 1308T504 1345T440 1361Q400 1361 389 1331T389 1269H301Q280 1349 319 1404T438 1460Q479 1460 518 1444T594 1408T664 1371T727 1355Q764 1355 777 1384T779 1450H867Q887 1372
848 1314T728 1256ZM931 0V562Q931 664 911 744T849 880T745 965T597 994Q509 994 445 964T339 878T277 748T256 583L165 594Q165 769 224 882T385 1050T612 1105Q701 1105 771 1079T894 1006T980 894T1030 752T1047 591V0H931ZM140 0V1080H245V837H256V0H140Z"
/>
<glyph unicode="&#xf2;" horiz-adv-x="1166" d="M521 1255L414 1545H521L628 1255H521ZM583 -30Q422 -30 310 43T139 245T80 542Q80 711 140 839T312 1039T583 1110Q744 1110 856 1038T1027 837T1086 542Q1086 371 1027 243T855 42T583 -30ZM583 82Q774 82 868
210T963 542Q963 750 868 874T583 998Q454 998 370 940T245 779T203 542Q203 334 299 208T583 82Z" />
<glyph unicode="&#xf3;" horiz-adv-x="1166" d="M634 1255H527L635 1545H742L634 1255ZM583 -30Q422 -30 310 43T139 245T80 542Q80 711 140 839T312 1039T583 1110Q744 1110 856 1038T1027 837T1086 542Q1086 371 1027 243T855 42T583 -30ZM583 82Q774 82 868
210T963 542Q963 750 868 874T583 998Q454 998 370 940T245 779T203 542Q203 334 299 208T583 82Z" />
<glyph unicode="&#xf4;" horiz-adv-x="1166" d="M311 1255L525 1510H639L854 1255H729L582 1427L436 1255H311ZM583 -30Q422 -30 310 43T139 245T80 542Q80 711 140 839T312 1039T583 1110Q744 1110 856 1038T1027 837T1086 542Q1086 371 1027 243T855 42T583
-30ZM583 82Q774 82 868 210T963 542Q963 750 868 874T583 998Q454 998 370 940T245 779T203 542Q203 334 299 208T583 82Z" />
<glyph unicode="&#xf5;" horiz-adv-x="1166" d="M728 1256Q688 1256 649 1272T574 1308T504 1345T440 1361Q400 1361 389 1331T389 1269H301Q280 1349 319 1404T438 1460Q479 1460 518 1444T594 1408T664 1371T727 1355Q764 1355 777 1384T779 1450H867Q887 1372
848 1314T728 1256ZM583 -30Q422 -30 310 43T139 245T80 542Q80 711 140 839T312 1039T583 1110Q744 1110 856 1038T1027 837T1086 542Q1086 371 1027 243T855 42T583 -30ZM583 82Q774 82 868 210T963 542Q963 750 868 874T583 998Q454 998 370 940T245 779T203
542Q203 334 299 208T583 82Z" />
<glyph unicode="&#xf6;" horiz-adv-x="1166" d="M698 1305V1445H838V1305H698ZM328 1305V1445H468V1305H328ZM583 -30Q422 -30 310 43T139 245T80 542Q80 711 140 839T312 1039T583 1110Q744 1110 856 1038T1027 837T1086 542Q1086 371 1027 243T855 42T583 -30ZM583
82Q774 82 868 210T963 542Q963 750 868 874T583 998Q454 998 370 940T245 779T203 542Q203 334 299 208T583 82Z" />
<glyph unicode="&#xf7;" horiz-adv-x="1080" d="M120 668V773H960V668H120ZM484 902V1047H629V902H484ZM484 418V563H629V418H484Z" />
<glyph unicode="&#xf8;" horiz-adv-x="1166" d="M116 -5L36 75L203 242L235 267L884 914L909 946L1050 1085L1130 1006L967 846L938 823L303 188L276 155L116 -5ZM583 -30Q422 -30 310 43T139 245T80 542Q80 711 140 839T312 1039T583 1110Q744 1110 856 1038T1027
837T1086 542Q1086 371 1027 243T855 42T583 -30ZM583 82Q774 82 868 210T963 542Q963 750 868 874T583 998Q454 998 370 940T245 779T203 542Q203 334 299 208T583 82Z" />
<glyph unicode="&#xf9;" horiz-adv-x="1167" d="M543 1255L435 1545H542L650 1255H543ZM555 -25Q466 -25 396 1T273 74T187 186T137 328T120 489V1080H236V518Q236 416 256 336T318 200T422 115T570 86Q658 86 722 116T828 202T890 332T911 497L1002 486Q1002
311 943 198T782 30T555 -25ZM922 0V243H911V1080H1027V0H922Z" />
<glyph unicode="&#xfa;" horiz-adv-x="1167" d="M623 1255H515L623 1545H730L623 1255ZM555 -25Q466 -25 396 1T273 74T187 186T137 328T120 489V1080H236V518Q236 416 256 336T318 200T422 115T570 86Q658 86 722 116T828 202T890 332T911 497L1002 486Q1002
311 943 198T782 30T555 -25ZM922 0V243H911V1080H1027V0H922Z" />
<glyph unicode="&#xfb;" horiz-adv-x="1167" d="M300 1255L515 1510H629L844 1255H719L572 1427L425 1255H300ZM555 -25Q466 -25 396 1T273 74T187 186T137 328T120 489V1080H236V518Q236 416 256 336T318 200T422 115T570 86Q658 86 722 116T828 202T890 332T911
497L1002 486Q1002 311 943 198T782 30T555 -25ZM922 0V243H911V1080H1027V0H922Z" />
<glyph unicode="&#xfc;" horiz-adv-x="1167" d="M688 1305V1445H828V1305H688ZM317 1305V1445H457V1305H317ZM555 -25Q466 -25 396 1T273 74T187 186T137 328T120 489V1080H236V518Q236 416 256 336T318 200T422 115T570 86Q658 86 722 116T828 202T890 332T911
497L1002 486Q1002 311 943 198T782 30T555 -25ZM922 0V243H911V1080H1027V0H922Z" />
<glyph unicode="&#xfd;" horiz-adv-x="1033" d="M566 1255H459L566 1545H673L566 1255ZM298 -480L508 85L510 -83L37 1080H160L566 70H502L871 1080H992L418 -480H298Z" />
<glyph unicode="&#xfe;" horiz-adv-x="1168" d="M140 796V1440H256V796H140ZM613 -30Q467 -30 366 46T212 251T159 542Q159 705 212 833T369 1036T624 1110Q771 1110 875 1035T1033 831T1088 542Q1088 380 1033 251T872 46T613 -30ZM140 -480V1080H245V248H255V-480H140ZM606
80Q725 80 804 141T924 306T965 542Q965 672 926 775T807 939T604 1000Q485 1000 405 942T285 779T245 542Q245 410 284 306T404 141T606 80Z" />
<glyph unicode="&#xff;" horiz-adv-x="1033" d="M641 1305V1445H781V1305H641ZM270 1305V1445H410V1305H270ZM298 -480L508 85L510 -83L37 1080H160L566 70H502L871 1080H992L418 -480H298Z" />
<glyph unicode="&#x2013;" horiz-adv-x="1080" d="M120 578V683H960V578H120Z" />
<glyph unicode="&#x2014;" horiz-adv-x="1560" d="M120 578V683H1440V578H120Z" />
<glyph unicode="&#x2018;" horiz-adv-x="402" d="M272 1051Q209 1038 168 1077T126 1195V1440H272V1245H193Q192 1210 194 1180T212 1130T264 1114L272 1051Z" />
<glyph unicode="&#x2019;" horiz-adv-x="402" d="M130 1052L138 1114Q175 1112 190 1130T207 1179T208 1245H130V1440H275V1195Q275 1116 234 1077T130 1052Z" />
<glyph unicode="&#x201a;" horiz-adv-x="505" d="M120 -193L128 -131Q165 -133 180 -115T197 -66T198 0H120V195H265V-50Q265 -129 224 -168T120 -193Z" />
<glyph unicode="&#x201c;" horiz-adv-x="692" d="M532 1453L525 1391Q488 1393 473 1375T456 1326T454 1260H532V1065H387V1310Q387 1389 428 1428T532 1453ZM305 1453L298 1391Q261 1393 246 1375T229 1326T227 1260H305V1065H160V1310Q160 1389 201 1428T305 1453Z" />
<glyph unicode="&#x201d;" horiz-adv-x="692" d="M160 1068L168 1130Q205 1128 220 1146T237 1195T238 1261H160V1456H305V1211Q305 1132 264 1093T160 1068ZM387 1068L395 1130Q432 1128 447 1146T464 1195T465 1261H387V1456H532V1211Q532 1132 491 1093T387 1068Z" />
<glyph unicode="&#x201e;" horiz-adv-x="692" d="M160 -193L168 -131Q205 -133 220 -115T237 -66T238 0H160V195H305V-50Q305 -129 264 -168T160 -193ZM387 -193L395 -131Q432 -133 447 -115T464 -66T465 0H387V195H532V-50Q532 -129 491 -168T387 -193Z" />
<glyph unicode="&#x2022;" horiz-adv-x="1273" d="M641 413Q579 413 530 441T450 519T420 630Q420 692 450 741T529 818T641 847Q698 847 746 819T824 741T853 630Q853 568 824 519T747 442T641 413Z" />
<glyph unicode="&#x2039;" horiz-adv-x="1213" d="M746 164L280 630L746 1096L820 1023L426 630L820 237L746 164Z" />
<glyph unicode="&#x203a;" horiz-adv-x="1213" d="M468 164L393 237L788 630L393 1023L468 1096L933 630L468 164Z" />
</font>
</defs>
</svg>
